北京快3走势图彩票控
登录注册
社区应用 最新帖子 获取酷币 勋章中心 会员列表 统计排行
主题 : SG WANNA BE《BY SG WANNA BE 7 part.2》2011年韩国版 175.3M整轨WAV 百度下载
xushengbin 离线
级别: 骑士
显示用户信息 
0楼  发表于: 2015-07-31  

SG WANNA BE《BY SG WANNA BE 7 part.2》2011年韩国版 175.3M整轨WAV 百度下载












姓名:David
本名:蔡東河Chae Dong Ha
出生日期:1981年6月23日
身高:182cm
體重:73kg
學歷:明德高中、漢城藝術大學放送演藝系
興趣:看電影
2011年蔡东河在家中自杀


姓名:Whyme
本名:金勇俊Kim Yong Jun
出生日期:1983年
姓名:鎮浩Jin Ho
本名:金鎮浩Kim Jin Ho
出生日期:1986年5月21日
學歷:大原高中


曾演推出專輯:
1st:2004年1月20日《Timeless》
2nd:2005年3月29日《罪与罚》
曾獲獎項:
2004年:漢城歌謠大獎新人歌手獎
2004年:SBS歌謠大獎新人組合獎


专辑介绍:
韩国现今最当红的组合之一。
R&B乐队SG Wannabe继2004推出《Wanna Be+》首张唱片後,一曲《Timeless》和《Loved you desperately》令他们一举成名,并在去年赢得不少韩国乐坛大奖,包括∶2004 金唱片大奖、首尔(Seoul)流行音乐大奖、SBS年度音乐大赏最佳流行组合奖?#21462;?#36825;次由Kim Do-hoon、Jo Yung-soo、Lee Kyung-sub等一一为你打造新音乐!现时主打歌《While you live》(第六首)及《罪和罚》(第一首),均是现时热播曲?#20426;?br />

专辑推出后男生三?#36865;?#20307;SG Wanna Be,立即当选为2005年上半年k歌之王。权威的伴唱机公司发表了2005年上半年度歌厅的点唱率统计。根据这份统计自去年年末起6个月间《timeless》、《the story》(电视剧《魔术》o.s.t)和收录在第二张专辑里的《罪与罚》、《光》等几首?#20013;?#22312;歌厅走红,这些歌曲的总点唱数为305万3千844次。成为05年当仁不让的韩国最走红合唱团体。


文根英、金正恩、金善雅等国内女子演艺明星们都表示迷恋SG Wanna be组合。预定在5月29日举办的SG Wanna be组合演唱会现场,将会有金喜善、文根英、金正恩、成有利、韩恩正、陈熙敬等女子明星们的总动员。SG Wanna be组合29日在汉城奥?#21046;?#20811;公园的举重竞技场,举办第一场演唱会。美女明星们将参加他们的演唱会,为SG Wanna be组合加油。


文根英的经纪人和SG Wanna be组?#31995;?#32463;纪人,平时走访得还很亲密。得知文根英是SG Wanna be组?#31995;腇ans后,SG Wanna be组合通过经纪人邀请了文根英,文根英当然?#25442;?#25298;绝。金正恩最近在一次采访中也称自己是SG Wanna be组?#31995;?#24544;实歌迷,得知这一消息的经纪公司马上寄去了正式邀请函。?#28304;耍?#37329;正恩表示“非常?#34892;籗G Wanna be组?#31995;?#30427;情,如当日日程允许,会尽量参加演唱会”。


包内套图


此帖售价 2 酷币,已有 4 人购买
若发?#21482;?#21592;采用欺骗的方法获取财富,请立刻举报,我们会对会员处以2-N倍的罚金,严重者封掉ID!










xushengbin 离线
级别: 骑士
显示用户信息 
1楼  发表于: 2015-07-31  
Exact Audio Copy V0.99 prebeta 5 from 4. May 2009

EAC 抓取日志文件从14. 七月 2015, 19:03

未知?#24080;?#23478; / 未知标题

使用驱动器  :hp      DVD-RAM SW810   Adapter: 3  ID: 1

读取模式     : 保护
使用精确流   : 是
废除音频缓冲 : 是
使用 C2 指针 : 否

读取偏移校正                   : 6
读取 Lead-In 和 Lead-Out       : 否
用静音填充抓取中丢失偏移的采样 : 是
去除首尾静音块                 : 否
在 CRC 计算中使用了空样本      : 否
已用接口                       : Win NT 及 2000 本地 Win32 接口

所用输出格式 : 内部 WAV 函数
样本格式     : 44.100 Hz;16 Bit;立体声


被抓轨 CD 的 TOC

     音轨 |   开始   |   长度   | 起始扇区 | 结?#37319;?#21306;
    --------------------------------------------------
       1  |  0:00.00 |  4:03.57 |       0  |   18281  
       2  |  4:03.57 |  4:04.21 |   18282  |   36602  
       3  |  8:08.03 |  3:57.23 |   36603  |   54400  
       4  | 12:05.26 |  3:30.34 |   54401  |   70184  
       5  | 15:35.60 |  3:54.22 |   70185  |   87756  
       6  | 19:30.07 |  3:47.50 |   87757  |  104831  


范围状态及错误

已选择范围

     文件名 E:\古\SG WABBA BE BY SG WANNA BE 7 part.2\未知?#24080;?#23478; - 未知标题.wav

     峰值电平 100.0 %
     范围质量 100.0 %
     复制 CRC D6BF7BF1
     复制成功

没有错误发生


AccurateRip 概要

音轨  1  无法精确校验 (确认 1)  [CE57A1C1], AccurateRip 返回 [664A8644]
音轨  2  无法精确校验 (确认 1)  [A3A0BB30], AccurateRip 返回 [E969D4FF]
音轨  3  无法精确校验 (确认 1)  [3E990D14], AccurateRip 返回 [243F5A70]
音轨  4  无法精确校验 (确认 1)  [1FEBA261], AccurateRip 返回 [F87B6A25]
音轨  5  无法精确校验 (确认 1)  [823669E9], AccurateRip 返回 [5E2FFE95]
音轨  6  无法精确校验 (确认 1)  [FC9BE0EF], AccurateRip 返回 [5CEA07C9]

没有音轨被精确验证
你可能遇到在数据库中的一词多义

状态报告结尾
xushengbin 离线
级别: 骑士
显示用户信息 
2楼  发表于: 2015-07-31  
REM DISCID 48057506
REM COMMENT "ExactAudioCopy v0.99pb5"
PERFORMER "未知?#24080;?#23478;"
TITLE "未知标题"
FILE "未知?#24080;?#23478; - 未知标题.wav" WAVE
  TRACK 01 AUDIO
    TITLE "Track01"
    PERFORMER "未知?#24080;?#23478;"
    FLAGS DCP
    INDEX 01 00:00:00
  TRACK 02 AUDIO
    TITLE "Track02"
    PERFORMER "未知?#24080;?#23478;"
    FLAGS DCP
    INDEX 00 04:02:02
    INDEX 01 04:03:57
  TRACK 03 AUDIO
    TITLE "Track03"
    PERFORMER "未知?#24080;?#23478;"
    FLAGS DCP
    INDEX 00 08:06:72
    INDEX 01 08:08:03
  TRACK 04 AUDIO
    TITLE "Track04"
    PERFORMER "未知?#24080;?#23478;"
    FLAGS DCP
    INDEX 00 12:03:33
    INDEX 01 12:05:26
  TRACK 05 AUDIO
    TITLE "Track05"
    PERFORMER "未知?#24080;?#23478;"
    FLAGS DCP
    INDEX 00 15:34:12
    INDEX 01 15:35:60
  TRACK 06 AUDIO
    TITLE "Track06"
    PERFORMER "未知?#24080;?#23478;"
    FLAGS DCP
    INDEX 00 19:28:49
    INDEX 01 19:30:07
31902134 离线
级别: 骑士
显示用户信息 
3楼  发表于: 2015-08-01  
不错不错,挺稀缺的资源~
wenevercry 离线
级别: 精灵王
显示用户信息 
4楼  发表于: 2015-08-02  
支持一下~!!!
coolboy195 离线
级别: 未验证会员
显示用户信息 
5楼  发表于: 2018-06-11  
Thank u fir sare
chaye 离线
级别: 骑士
显示用户信息 
6楼  发表于: 08-14  
经典的专辑
描述
快速回复

验证问题:
123456+654321=? 正确答案:777777
按"Ctrl+Enter"直接提交
      北京快3走势图彩票控